Food Choices 2016 DOCU Watch Online or Direct Download Free Link

Food Choices 2016 DOCU 720p WEB-DL

Food.Choices.2016.DOCU.720p.WEB-DL.XviD.MP3-FGT

Plot: This documentary follows filmmaker Michal Siewierski as he explores the impact that food choice has on people’s health, the health of our planet and on the lives of other species sharing our world. It looks at many misconceptions about food and diet, offering a new view on these issues. The film interviews world-renowned experts, including Dr. T Colin Campbell, Dr. Richard Oppenlander, Rich Roll, Joe Cross, Dr. John McDougall, Capitan Paul Watson, Dr. Toni Bark, Dr. Pam Popper, Dr. Michael Greger, Gloria Athanis, and several others. You will never look at your plate in the same way again.

Director: Michal Siewierski
Writers: Michal Siewierski
Stars: Tony Bark, T. Colin Campbell, Jim Morris Hicks

Links: IMDBHOMEPAGE

Video
ID : 0
Format : MPEG-4 Visual
Format profile : [email protected]
Format settings, BVOP : No
Format settings, QPel : No
Format settings, GMC : No warppoints
Format settings, Matrix : Default (H.263)
Codec ID : XVID
Codec ID/Hint : XviD
Duration : 1h 31mn
Bit rate : 3 799 Kbps
Width : 1 280 pixels
Height : 718 pixels
Display aspect ratio : 16:9
Frame rate : 23.976 fps
Color space : YUV
Chroma subsampling : 4:2:0
Bit depth : 8 bits
Scan type : Progressive
Compression mode : Lossy
Bits/(Pixel*Frame) : 0.172
Stream size : 2.42 GiB (95%)
Writing library : Lavc57.24.102

Audio
ID : 1
Format : MPEG Audio
Format version : Version 1
Format profile : Layer 3
Mode : Joint stereo
Mode extension : MS Stereo
Codec ID : 55
Codec ID/Hint : MP3
Duration : 1h 31mn
Bit rate mode : Constant
Bit rate : 192 Kbps
Channel(s) : 2 channels
Sampling rate : 48.0 KHz
Compression mode : Lossy
Stream size : 125 MiB (5%)
Alignment : Aligned on interleaves
Interleave, duration : 24 ms (0.58 video frame)
Interleave, preload duration : 504 ms
Writing library : LAME3.99.5

Screenshots:

Food.Choices.2016.DOCU.720p.WEB-DL.XviD.MP3-FGT

Direct Download Links:
Download from ZIPPYSHARE (200MB Splits) – NO LIMITS
Download from UPLOADED.net (Ul.to Single Link)