Independence Day Resurgence 720p Download Directly or Watch Online

Independence Day Resurgence 2016 720p WEB-DL

Independence.Day.Resurgence.2016.720p.WEB-DL.DD5.1.H264-FGT
Independence.Day.Resurgence.2016.720p.WEB-DL.XviD.AC3-FGT

Plot: Two decades after the freak alien invasion that nearly destroyed mankind a new threat emerges. This Alien mothership is more than twice the size as the last one and once again, the world’s armies must band together to save the world. Do they have enough firepower or will this battle change and will aliens take over?

Director: Roland Emmerich
Writers: Nicolas Wright (screenplay), James A. Woods (screenplay)
Stars: Liam Hemsworth, Jeff Goldblum, Bill Pullman

Links: IMDBTRAILER

Video
ID : 1
Format : AVC
Format/Info : Advanced Video Codec
Format profile : [email protected]
Format settings, CABAC : No
Format settings, ReFrames : 2 frames
Codec ID : V_MPEG4/ISO/AVC
Duration : 2h 0mn
Bit rate : 3 936 Kbps
Width : 1 280 pixels
Height : 532 pixels
Display aspect ratio : 2.40:1
Frame rate mode : Constant
Frame rate : 24.000 fps
Color space : YUV
Chroma subsampling : 4:2:0
Bit depth : 8 bits
Scan type : Progressive
Bits/(Pixel*Frame) : 0.241
Stream size : 3.30 GiB (89%)
Title : Independence.Day.Resurgence.2016.720p.WEB-DL.DD5.1.H264-FGT
Language : English
Default : Yes
Forced : No
Color range : Limited
Color primaries : BT.709
Transfer characteristics : BT.709
Matrix coefficients : BT.709

Audio
ID : 2
Format : AC-3
Format/Info : Audio Coding 3
Mode extension : CM (complete main)
Format settings, Endianness : Big
Codec ID : A_AC3
Duration : 2h 0mn
Bit rate mode : Constant
Bit rate : 384 Kbps
Channel(s) : 6 channels
Channel positions : Front: L C R, Side: L R, LFE
Sampling rate : 48.0 KHz
Frame rate : 31.250 fps (1536 spf)
Compression mode : Lossy
Stream size : 330 MiB (9%)
Title : Independence.Day.Resurgence.2016.720p.WEB-DL.DD5.1.H264-FGT
Language : English
Default : Yes
Forced : No

Screenshots:

Independence.Day.Resurgence.2016.720p.WEB-DL.DD5.1.H264-FGT
Independence.Day.Resurgence.2016.720p.WEB-DL.XviD.AC3-FGT

Direct Download Links:
Download from ZIPPYSHARE (200MB Splits) – NO LIMITS
Download from UPLOADED.net (Ul.to Single Link)