Independence Day Resurgence Download Directly or Watch Online

Independence Day Resurgence 2016 WEB-DL

Independence.Day.Resurgence.2016.WEB-DL.XviD.AC3-FGT
Independence.Day.Resurgence.2016.WEB-DL.XviD.AC3-FGT
Independence.Day.Resurgence.2016.WEB-DL.XviD.MP3-FGT

Plot: Two decades after the freak alien invasion that nearly destroyed mankind a new threat emerges. This Alien mothership is more than twice the size as the last one and once again, the world’s armies must band together to save the world. Do they have enough firepower or will this battle change and will aliens take over?

Director: Roland Emmerich
Writers: Nicolas Wright (screenplay), James A. Woods (screenplay)
Stars: Liam Hemsworth, Jeff Goldblum, Bill Pullman

Links: IMDBTRAILER

Video
ID : 0
Format : MPEG-4 Visual
Format profile : [email protected]
Format settings, BVOP : No
Format settings, QPel : No
Format settings, GMC : No warppoints
Format settings, Matrix : Default (H.263)
Codec ID : XVID
Codec ID/Hint : XviD
Duration : 2h 0mn
Bit rate : 1 591 Kbps
Width : 720 pixels
Height : 304 pixels
Display aspect ratio : 2.40:1
Frame rate : 24.000 fps
Color space : YUV
Chroma subsampling : 4:2:0
Bit depth : 8 bits
Scan type : Progressive
Compression mode : Lossy
Bits/(Pixel*Frame) : 0.303
Stream size : 1.34 GiB (80%)
Writing library : Lavc57.16.101

Audio
ID : 1
Format : AC-3
Format/Info : Audio Coding 3
Mode extension : CM (complete main)
Format settings, Endianness : Big
Codec ID : 2000
Duration : 1h 59mn
Bit rate mode : Constant
Bit rate : 384 Kbps
Channel(s) : 6 channels
Channel positions : Front: L C R, Side: L R, LFE
Sampling rate : 48.0 KHz
Frame rate : 31.250 fps (1536 spf)
Compression mode : Lossy
Stream size : 329 MiB (19%)
Alignment : Aligned on interleaves
Interleave, duration : 42 ms (1.00 video frame)
Interleave, preload duration : 512 ms

Screenshots:

Independence.Day.Resurgence.2016.WEB-DL.XviD.AC3-FGT
Independence.Day.Resurgence.2016.WEB-DL.XviD.MP3-FGT

Direct Download Links:
Download from ZIPPYSHARE (200MB Splits) – NO LIMITS
Download from UPLOADED.net (Ul.to Single Link)