Watch The Caretaker Online or Download for Free

The Caretaker 2016 1080p WEB-DL

The Caretaker watch the movie online or direct single link download from uploaded, zippyshare, rapidgator, oboom, torrent or direct free link

The.Caretaker.2016.1080p.WEB-DL.DD5.1.H264-FGT

Plot: A young woman returns home to care for her gravely ill grandmother, only to begin sleepwalking and envisioning spirits.

Director: Jeff Prugh
Writers: Jeremy Robinson
Stars: Meegan Warner, Sondra Blake, Sean Martini

Links: IMDBTRAILER

Video
ID : 1
Format : AVC
Format/Info : Advanced Video Codec
Format profile : [email protected]
Format settings, CABAC : Yes
Format settings, ReFrames : 5 frames
Codec ID : V_MPEG4/ISO/AVC
Duration : 1h 19mn
Bit rate : 4 445 Kbps
Width : 1 896 pixels
Height : 808 pixels
Display aspect ratio : 2.35:1
Frame rate mode : Constant
Frame rate : 23.976 fps
Color space : YUV
Chroma subsampling : 4:2:0
Bit depth : 8 bits
Scan type : Progressive
Bits/(Pixel*Frame) : 0.121
Stream size : 2.48 GiB (90%)
Title : The.Caretaker.2016.1080p.WEB-DL.DD5.1.H264-FGT
Language : English
Default : Yes
Forced : No
Color range : Limited
Color primaries : BT.709
Transfer characteristics : BT.709
Matrix coefficients : BT.709

Audio
ID : 2
Format : AC-3
Format/Info : Audio Coding 3
Mode extension : CM (complete main)
Format settings, Endianness : Big
Codec ID : A_AC3
Duration : 1h 19mn
Bit rate mode : Constant
Bit rate : 384 Kbps
Channel(s) : 6 channels
Channel positions : Front: L C R, Side: L R, LFE
Sampling rate : 48.0 KHz
Frame rate : 31.250 fps (1536 spf)
Compression mode : Lossy
Stream size : 219 MiB (8%)
Title : The.Caretaker.2016.1080p.WEB-DL.DD5.1.H264-FGT
Language : English
Default : Yes
Forced : No

Screenshots:

The.Caretaker.2016.1080p.WEB-DL.DD5.1.H264-FGT

Direct Download Links:
Download from ZIPPYSHARE (200MB Splits) – NO LIMITS
Download from UPLOADED.net (Ul.to Single Link)