Watch The Caretaker Online or Download for Free

The Caretaker 2016 720p WEB-DL

The Caretaker watch the movie online or direct single link download from uploaded, zippyshare, rapidgator, oboom, torrent or direct free link

The.Caretaker.2016.720p.WEB-DL.XviD.AC3-FGT

Plot: A young woman returns home to care for her gravely ill grandmother, only to begin sleepwalking and envisioning spirits.

Director: Jeff Prugh
Writers: Jeremy Robinson
Stars: Meegan Warner, Sondra Blake, Sean Martini

Links: IMDBTRAILER

Video
ID : 0
Format : MPEG-4 Visual
Format profile : [email protected]
Format settings, BVOP : No
Format settings, QPel : No
Format settings, GMC : No warppoints
Format settings, Matrix : Default (H.263)
Codec ID : XVID
Codec ID/Hint : XviD
Duration : 1h 19mn
Bit rate : 3 377 Kbps
Width : 1 280 pixels
Height : 546 pixels
Display aspect ratio : 2.35:1
Frame rate : 23.976 fps
Color space : YUV
Chroma subsampling : 4:2:0
Bit depth : 8 bits
Scan type : Progressive
Compression mode : Lossy
Bits/(Pixel*Frame) : 0.202
Stream size : 1.88 GiB (90%)
Writing library : Lavc57.24.102

Audio
ID : 1
Format : AC-3
Format/Info : Audio Coding 3
Mode extension : CM (complete main)
Format settings, Endianness : Big
Codec ID : 2000
Duration : 1h 19mn
Bit rate mode : Constant
Bit rate : 384 Kbps
Channel(s) : 6 channels
Channel positions : Front: L C R, Side: L R, LFE
Sampling rate : 48.0 KHz
Frame rate : 31.250 fps (1536 spf)
Compression mode : Lossy
Stream size : 219 MiB (10%)
Alignment : Aligned on interleaves
Interleave, duration : 42 ms (1.00 video frame)
Interleave, preload duration : 512 ms

Screenshots:

The.Caretaker.2016.720p.WEB-DL.XviD.AC3-FGT

Direct Download Links:
Download from ZIPPYSHARE (200MB Splits) – NO LIMITS
Download from UPLOADED.net (Ul.to Single Link)