Watch The Caretaker Online or Download for Free

The Caretaker 2016 WEB-DL

The Caretaker watch the movie online or direct single link download from uploaded, zippyshare, rapidgator, oboom, torrent or direct free link

The.Caretaker.2016.WEB-DL.XviD.MP3-FGT
The.Caretaker.2016.WEB-DL.XviD.AC3-FGT
The.Caretaker.2016.WEB-DL.x264-FGT

Plot: A young woman returns home to care for her gravely ill grandmother, only to begin sleepwalking and envisioning spirits.

Director: Jeff Prugh
Writers: Jeremy Robinson
Stars: Meegan Warner, Sondra Blake, Sean Martini

Links: IMDBTRAILER

Video
ID : 0
Format : MPEG-4 Visual
Format profile : [email protected]
Format settings, BVOP : No
Format settings, QPel : No
Format settings, GMC : No warppoints
Format settings, Matrix : Default (H.263)
Codec ID : XVID
Codec ID/Hint : XviD
Duration : 1h 19mn
Bit rate : 1 428 Kbps
Width : 720 pixels
Height : 304 pixels
Display aspect ratio : 2.35:1
Frame rate : 23.976 fps
Color space : YUV
Chroma subsampling : 4:2:0
Bit depth : 8 bits
Scan type : Progressive
Compression mode : Lossy
Bits/(Pixel*Frame) : 0.272
Stream size : 815 MiB (87%)
Writing library : Lavc57.16.101

Audio
ID : 1
Format : MPEG Audio
Format version : Version 1
Format profile : Layer 3
Mode : Joint stereo
Mode extension : MS Stereo
Codec ID : 55
Codec ID/Hint : MP3
Duration : 1h 19mn
Bit rate mode : Constant
Bit rate : 192 Kbps
Channel(s) : 2 channels
Sampling rate : 48.0 KHz
Compression mode : Lossy
Stream size : 110 MiB (12%)
Alignment : Aligned on interleaves
Interleave, duration : 24 ms (0.58 video frame)
Interleave, preload duration : 504 ms
Writing library : LAME3.99.5

Screenshots:

The.Caretaker.2016.WEB-DL.XviD.MP3-FGT

Direct Download Links:
Download from ZIPPYSHARE (200MB Splits) – NO LIMITS
Download from UPLOADED.net (Ul.to Single Link)