Agatha Christies Poirot S01-S13 1080p BluRay REMUX AVC DTS-HD MA 2 0-EPSiLON

Poirot (1989–2013)

Director:
Stars: David Suchet, Hugh Fraser, Philip Jackson, Pauline Moran

Runtime: 100 minutes (taken from iMDB)
Genre: Crime, Drama, Mystery, Thriller

Rating: 8.6* (may differ)
Votes: 30955 (may differ)

Summary: This whodunit series based on Agatha Christie’s crime novels and short stories, is named after its star sleuth, Hercule Poirot, a famous former Belgian policeman, who settled for good in London after the war, soon so famous as an infallible private detective that he becomes a society figure in his own right. In each episode Poirot gets to solve a crime mystery -mostly murder(s)- for a paying client or otherwise catching his attention, generally along with his faithful English sidekick Captain Hastings and/or his Scotland yard ‘friendly rival’ Detective Chief Inspector Japp.

Links: iMDB

Direct Download Links:

4 Responses

  1. Pepeto mobile says:

    Thank you very much!
    A little note: all the episodes are there, but the names of the episodes in season 2 and 3 are messed up due to “peril at end house part 2” having the wrong title.

  2. Sandip says:

    Wonderful. Exactly as I wanted in remux. God bless you Dorukhan

  3. dorukhan says:

    Format version : Version 4
    File size : 17.2 GiB
    Duration : 1 h 37 min
    Overall bit rate mode : Variable
    Overall bit rate : 25.2 Mb/s
    Encoded date : UTC 2017-06-13 10:38:00
    Writing application : mkvmerge v12.0.0 (‘Trust / Lust’) 64bit
    Writing library : libebml v1.3.4 + libmatroska v1.4.5

    Video
    ID : 1
    Format : AVC
    Format/Info : Advanced Video Codec
    Format profile : [email protected]
    Format settings : CABAC / 4 Ref Frames
    Format settings, CABAC : Yes
    Format settings, Reference frames : 4 frames
    Codec ID : V_MPEG4/ISO/AVC
    Duration : 1 h 37 min
    Bit rate mode : Variable
    Bit rate : 23.6 Mb/s
    Maximum bit rate : 29.0 Mb/s
    Width : 1 920 pixels
    Height : 1 080 pixels
    Display aspect ratio : 16:9
    Frame rate mode : Constant
    Frame rate : 23.976 (24000/1001) FPS
    Standard : NTSC
    Color space : YUV
    Chroma subsampling : 4:2:0
    Bit depth : 8 bits
    Scan type : Progressive
    Bits/(Pixel*Frame) : 0.474
    Stream size : 16.0 GiB (93%)
    Title : MPEG-4 AVC Video / 23563 kbps / 1080p / 23.976 fps / 16:9 / High Profile 4.1
    Language : English
    Default : Yes
    Forced : No
    Color range : Limited
    Color primaries : BT.709
    Transfer characteristics : BT.709
    Matrix coefficients : BT.709

    Audio
    ID : 2
    Format : DTS XLL
    Format/Info : Digital Theater Systems
    Commercial name : DTS-HD Master Audio
    Codec ID : A_DTS
    Duration : 1 h 37 min
    Bit rate mode : Variable
    Bit rate : 1 585 kb/s
    Channel(s) : 2 channels
    Channel layout : L R
    Sampling rate : 48.0 kHz
    Frame rate : 93.750 FPS (512 SPF)
    Bit depth : 16 bits
    Compression mode : Lossless
    Stream size : 1.08 GiB (6%)
    Title : DTS-HD Master Audio / 2.0 / 48 kHz / 1585 kbps / 16-bit
    Language : English
    Default : Yes
    Forced : No

    Text
    ID : 3
    Format : PGS
    Codec ID : S_HDMV/PGS
    Codec ID/Info : Picture based subtitle format used on BDs/HD-DVDs
    Duration : 1 h 36 min
    Bit rate : 61.0 kb/s
    Count of elements : 3326
    Stream size : 42.1 MiB (0%)
    Language : English
    Default : No
    Forced : No

Leave a Reply

Your email address will not be published. Required fields are marked *