Enemy At The Gates 2001 1080p BluRay Remux AVC DTS-HD MA 5 1-decatora27

Enemy at the Gates (2001)

Director: Jean-Jacques Annaud
Stars: Jude Law, Ed Harris, Rachel Weisz, Joseph Fiennes

Runtime: 131 minutes (taken from iMDB)
Genre: Drama, History, War

Rating: 7.6* (may differ)
Votes: 223762 (may differ)

Release Date: 2001-03-16 (taken from IMDb)
Viewer Rating (TV/MPAA): R (taken from IMDb)

Summary: In World War II, the fall of Stalingrad will mean the collapse of the whole country. The Germans and Russians are fighting over every block, leaving only ruins behind. The Russian sniper Vassili Zaitsev stalks the Germans, taking them out one by one, thus hurting the morale of the German troops. The political officer Danilov leads him on, publishing his efforts to give his countrymen some hope. But Vassili eventually start to feel that he can not live up to the expectations on him. He and Danilov fall in love with the same girl, Tanya, a female soldier. From Germany comes the master sniper K├Ânig to put an end to the extraordinary skilled Russian sniper.

Links: iMDB

Direct Download Links:

5 Responses

  1. Kano says:

    NFO please.. is this the US or IT release?

    • That guy says:

      Looks like it’s the Italian BD based off of it’s size on filecrypt.
      It has a much lower bitrate than the US BD but the image quality isn’t that bad.
      Also, the Italian BD is open matte with a ratio of 1.78:1 opposed to the US BD which more closely represents the original films aspect ration at 2.34:1.
      Some prefer to be purist, some prefer to fill their screen.
      You can compare the two here: https://caps-a-holic.com/c.php?d1=4298&d2=569&c=1068
      The Italian release limits you to DTS-HD MA 2.0 for English as well so there’s that too….

      If you want the US BD get Enemy.at.the.Gates.2001.BluRay.1080p.TrueHD.5.1.AVC.REMUX-FraMeSToR.

      • That guy says:

        General
        Complete name : C:\Users\Omen\Videos\Enemy.At.The.Gates.2001.1080p.BluRay.Remux.AVC.DTS-HD.MA.5.1-decatora27.mkv
        Format : Matroska
        Format version : Version 4
        File size : 23.5 GiB
        Duration : 2 h 10 min
        Overall bit rate mode : Variable
        Overall bit rate : 25.7 Mb/s
        Encoded date : UTC 2019-11-22 18:05:40
        Writing application : mkvmerge v40.0.0 (‘Old Town Road + Pony’) 64-bit
        Writing library : libebml v1.3.9 + libmatroska v1.5.2

        Video
        ID : 1
        Format : AVC
        Format/Info : Advanced Video Codec
        Format profile : [email protected]
        Format settings : CABAC / 4 Ref Frames
        Format settings, CABAC : Yes
        Format settings, Reference frames : 4 frames
        Codec ID : V_MPEG4/ISO/AVC
        Duration : 2 h 10 min
        Bit rate mode : Variable
        Bit rate : 22.0 Mb/s
        Maximum bit rate : 30.0 Mb/s
        Width : 1 920 pixels
        Height : 1 080 pixels
        Display aspect ratio : 16:9
        Frame rate mode : Constant
        Frame rate : 23.976 (24000/1001) FPS
        Standard : NTSC
        Color space : YUV
        Chroma subsampling : 4:2:0
        Bit depth : 8 bits
        Scan type : Progressive
        Bits/(Pixel*Frame) : 0.442
        Stream size : 20.1 GiB (86%)
        Title : Enemy at the Gates 2001 1080p Bluray Remux AVC DTS-HD MA 5.1-decatora27
        Language : English
        Default : No
        Forced : No
        Color range : Limited
        Color primaries : BT.709
        Transfer characteristics : BT.709
        Matrix coefficients : BT.709

        Audio
        ID : 2
        Format : DTS XLL
        Format/Info : Digital Theater Systems
        Commercial name : DTS-HD Master Audio
        Codec ID : A_DTS
        Duration : 2 h 10 min
        Bit rate mode : Variable
        Bit rate : 3 706 kb/s
        Channel(s) : 6 channels
        Channel layout : C L R Ls Rs LFE
        Sampling rate : 48.0 kHz
        Frame rate : 93.750 FPS (512 SPF)
        Bit depth : 24 bits
        Compression mode : Lossless
        Stream size : 3.39 GiB (14%)
        Title : English DTS-HD MA 5.1
        Language : English
        Default : Yes
        Forced : No

        Text #1
        ID : 3
        Format : PGS
        Muxing mode : zlib
        Codec ID : S_HDMV/PGS
        Codec ID/Info : Picture based subtitle format used on BDs/HD-DVDs
        Duration : 1 h 55 min
        Bit rate : 282 b/s
        Count of elements : 22
        Stream size : 238 KiB (0%)
        Title : English
        Language : English
        Default : No
        Forced : No

        Text #2
        ID : 4
        Format : PGS
        Muxing mode : zlib
        Codec ID : S_HDMV/PGS
        Codec ID/Info : Picture based subtitle format used on BDs/HD-DVDs
        Duration : 2 h 2 min
        Bit rate : 24.6 kb/s
        Count of elements : 2366
        Stream size : 21.6 MiB (0%)
        Title : Spanish
        Language : Spanish
        Default : No
        Forced : No

        • That guy says:

          I am uncertain of the source on this one.
          It doesn’t appear to be the Italian BD.
          I did some screen caps comparing them and I must say that I think this one looks better.
          The colors and definition look more accurate despite the lower bitrate.

          Download this to archive to see comparisons: https://file.io/9nvCpxXuQNvo

          Both BDs use the same source but the encoding and color grading looks superior on this release.
          DTS-HD MA 5.1 instead of Dolby TrueHD 5.1 audio.

  2. Sandip says:

    Thanks for this

Leave a Reply

Your email address will not be published. Required fields are marked *