Ghostbusters 1984 German Fuji 35mm v1.0 1080p FLAC 5.1 x264

Ghostbusters (1984)

Director: Ivan Reitman
Stars: Bill Murray, Dan Aykroyd, Sigourney Weaver, Harold Ramis

Runtime: 105 minutes (taken from iMDB)
Genre: Action, Comedy, Fantasy

Rating: 7.8* (may differ)
Votes: 334764 (may differ)

Release Date: 1984-06-08 (taken from IMDb)
Viewer Rating (TV/MPAA): PG (taken from IMDb)

Summary: Peter Venkman, Ray Stantz and Egon work at the University where they delve into the paranormal and fiddle with many unethical experiments on the students. As they are kicked out of the University do they really understand their knowledge of the paranormal and go into business for themselves. Under the new snazzy business name of ‘Ghostbusters’, and living in the old firehouse building they work out of, they are called to rid New York City of paranormal phenomenon at everyone’s whim…. for a price. They make national press as the media thinks and pressures everybody the Ghostbusters are the cause of it all. Thrown in jail by the EPA, the mayor takes a chance and calls on them to help save the city. Unbeknownst to all, a long dead Gozer worshiper (Evo Shandor) erected downtown apartment building is the cause of all the paranormal activity. They find out the building could resurrect the ancient Hittite god, Gozer, and bring an end to all of humanity. Who are you gonna call to stop this terrible world-ending menace?

Links: iMDB

Direct Download Links:


Please Note:

1. If any password is required, it will be the domain of the site – sn___.it.

2. If you’re taken to FileCrypt – please enter the password, solve the captcha and click on the download DLC button
Use the DLC on JDownloader2 or dcrypt it to get access to the links.

3. Please use the latest version of 7-Zip or WinRAR (Windows), p7zip or unrar (Linux) and Unarchiver or Keka (Mac) to extract the files, depending on the file format.

Extra protection has been added to this release as it may have been taken down recently or there is a risk of it being taken down soon. Thank you for your understanding and we hope you enjoy the content.

3 Responses

  1. Datahoarder says:

    I love all the 35mm stuff, thank you so much!
    If more comes out I hope it’ll find its way here aswell.

  2. Mo says:

    Thank you so so so much !!

  3. dorukhan says:

    https://imgbox.com/g/141TIpsu49

    Scan of a German 35mm Fuji print of Ghostbusters 1984. Has a bit of a magenta push, this is how the print actually looks.

    It contains the German 35mm optical audio and the English 35mm optical audio from the older scan was also synced. The resulting handful of gaps were filled with the THX LD. The THX LD track is also included. A few upmixes are included as well, specifically SDU4 upmixes of the two 35mm optical tracks. The English SDU4 upmix also has a simple 5.1 upmix included as default, and a Dolby Headphone track is also included for your convenience.

    Format : Matroska
    Format version : Version 4 / Version 2
    File size : 28.1 GiB
    Duration : 1 h 44 min
    Overall bit rate mode : Variable
    Overall bit rate : 38.4 Mb/s
    Encoded date : UTC 2020-11-10 22:10:07
    Writing application : mkvmerge v29.0.0 (‘Like It Or Not’) 64-bit
    Writing library : libebml v1.3.6 + libmatroska v1.4.9 / Lavf58.29.100

    Video
    ID : 1
    Format : AVC
    Format/Info : Advanced Video Codec
    Format profile : [email protected]
    Format settings, CABAC : Yes
    Format settings, ReFrames : 4 frames
    Codec ID : V_MPEG4/ISO/AVC
    Duration : 1 h 44 min
    Bit rate : 25.0 Mb/s
    Width : 1 920 pixels
    Height : 1 080 pixels
    Display aspect ratio : 16:9
    Frame rate mode : Constant
    Frame rate : 24.000 FPS
    Color space : YUV
    Chroma subsampling : 4:2:0
    Bit depth : 8 bits
    Scan type : Progressive
    Bits/(Pixel*Frame) : 0.502
    Stream size : 18.3 GiB (65%)
    Writing library : x264 core 157 r2935 545de2f
    Encoding settings : cabac=1 / ref=4 / deblock=1:-1:-1 / analyse=0x1:0x111 / me=hex / subme=8 / psy=1 / psy_rd=1.00:0.15 / mixed_ref=1 / me_range=16 / chroma_me=1 / trellis=2 / 8x8dct=0 / cqm=0 / deadzone=21,11 / fast_pskip=1 / chroma_qp_offset=-3 / threads=24 / lookahead_threads=4 / sliced_threads=0 / nr=0 / decimate=1 / interlaced=0 / bluray_compat=0 / constrained_intra=0 / bframes=3 / b_pyramid=2 / b_adapt=1 / b_bias=0 / direct=3 / weightb=1 / open_gop=0 / weightp=2 / keyint=240 / keyint_min=24 / scenecut=40 / intra_refresh=0 / rc_lookahead=50 / rc=2pass / mbtree=1 / bitrate=25000 / ratetol=1.0 / qcomp=0.60 / qpmin=0 / qpmax=69 / qpstep=4 / cplxblur=20.0 / qblur=0.5 / vbv_maxrate=50000 / vbv_bufsize=62500 / nal_hrd=none / filler=0 / ip_ratio=1.40 / aq=1:1.00
    Default : Yes
    Forced : No
    Color range : Limited
    Color primaries : BT.709
    Transfer characteristics : BT.709
    Matrix coefficients : BT.709

    Audio #1
    ID : 2
    Format : FLAC
    Format/Info : Free Lossless Audio Codec
    Codec ID : A_FLAC
    Duration : 1 h 44 min
    Bit rate mode : Variable
    Bit rate : 1 378 kb/s
    Channel(s) : 2 channels
    Channel positions : Front: L R
    Sampling rate : 48.0 kHz
    Frame rate : 10.417 FPS (4608 spf)
    Bit depth : 24 bits
    Delay relative to video : -5 ms
    Stream size : 1.01 GiB (4%)
    Title : English 35mm optical
    Writing library : Lavf58.29.100
    Language : English
    Default : No
    Forced : No

    Audio #2
    ID : 3
    Format : FLAC
    Format/Info : Free Lossless Audio Codec
    Codec ID : A_FLAC
    Duration : 1 h 44 min
    Bit rate mode : Variable
    Bit rate : 2 508 kb/s
    Channel(s) : 4 channels
    Channel positions : Front: L C R, Back: C
    Sampling rate : 48.0 kHz
    Frame rate : 10.417 FPS (4608 spf)
    Bit depth : 24 bits
    Delay relative to video : -5 ms
    Stream size : 1.83 GiB (7%)
    Title : English 35mm optical SDU4 decode
    Writing library : Lavf58.29.100
    Language : English
    Default : No
    Forced : No

    Audio #3
    ID : 4
    Format : FLAC
    Format/Info : Free Lossless Audio Codec
    Codec ID : A_FLAC
    Duration : 1 h 44 min
    Bit rate mode : Variable
    Bit rate : 3 106 kb/s
    Channel(s) : 6 channels
    Channel positions : Front: L C R, Back: L R, LFE
    Sampling rate : 48.0 kHz
    Frame rate : 10.417 FPS (4608 spf)
    Bit depth : 24 bits
    Delay relative to video : -5 ms
    Stream size : 2.27 GiB (8%)
    Title : Eng. 35mm opt. SDU4 5.1 upmix
    Writing library : Lavf58.29.100
    Language : English
    Default : Yes
    Forced : No

    Audio #4
    ID : 5
    Format : FLAC
    Format/Info : Free Lossless Audio Codec
    Codec ID : A_FLAC
    Duration : 1 h 44 min
    Bit rate mode : Variable
    Bit rate : 1 362 kb/s
    Channel(s) : 2 channels
    Channel positions : Front: L R
    Sampling rate : 48.0 kHz
    Frame rate : 10.417 FPS (4608 spf)
    Bit depth : 24 bits
    Delay relative to video : -5 ms
    Stream size : 1 019 MiB (4%)
    Title : Eng. 35mm opt. SDU4 5.1 upmix -> Dolby Headphone (DH1)
    Writing library : Lavf58.29.100
    Language : English
    Default : No
    Forced : No

    Audio #5
    ID : 6
    Format : FLAC
    Format/Info : Free Lossless Audio Codec
    Codec ID : A_FLAC
    Duration : 1 h 44 min
    Bit rate mode : Variable
    Bit rate : 1 319 kb/s
    Channel(s) : 2 channels
    Channel positions : Front: L R
    Sampling rate : 48.0 kHz
    Frame rate : 10.417 FPS (4608 spf)
    Bit depth : 24 bits
    Delay relative to video : -5 ms
    Stream size : 987 MiB (3%)
    Title : THX LD PCM 2.0
    Writing library : Lavf58.29.100
    Language : English
    Default : No
    Forced : No

    Audio #6
    ID : 7
    Format : FLAC
    Format/Info : Free Lossless Audio Codec
    Codec ID : A_FLAC
    Duration : 1 h 44 min
    Bit rate mode : Variable
    Bit rate : 1 254 kb/s
    Channel(s) : 2 channels
    Channel positions : Front: L R
    Sampling rate : 48.0 kHz
    Frame rate : 10.417 FPS (4608 spf)
    Bit depth : 24 bits
    Stream size : 938 MiB (3%)
    Title : German 35mm optical
    Language : German
    Default : Yes
    Forced : No

    Audio #7
    ID : 8
    Format : FLAC
    Format/Info : Free Lossless Audio Codec
    Codec ID : A_FLAC
    Duration : 1 h 44 min
    Bit rate mode : Variable
    Bit rate : 2 515 kb/s
    Channel(s) : 4 channels
    Channel positions : Front: L C R, Back: C
    Sampling rate : 48.0 kHz
    Frame rate : 10.417 FPS (4608 spf)
    Bit depth : 24 bits
    Delay relative to video : -5 ms
    Stream size : 1.84 GiB (7%)
    Title : German 35mm optical SDU4 decode
    Writing library : Lavf58.29.100
    Language : German
    Default : No
    Forced : No

Leave a Reply

Your email address will not be published. Required fields are marked *