Neon Genesis Evangelion 1995 JPN 1080P AVC LPCM 5 1

Neon Genesis Evangelion (1995–1996)

Director:
Stars: Spike Spencer, Allison Keith, Sue Ulu, Amanda Winn Lee

Runtime: 24 minutes (taken from iMDB)
Genre: Animation, Action, Drama, Sci-Fi, Thriller

Rating: 8.6* (may differ)
Votes: 35839 (may differ)

Release Date: 1997-08-20 (taken from IMDb)
Viewer Rating (TV/MPAA): TV-14 (taken from IMDb)

Summary: When the Angels start attacking the planet Earth in the year 2015, only a handful of 14-year-old EVA pilots are able to stop them. Young Shinji Ikari suddenly finds himself forced to pilot EVA-01, a giant organic mecha, designed and constructed by NERV, that is the only thing that can stop the Angels.

Links: iMDB

Direct Download Links:

Big thanks to @Blastedsteel


Please Note:

1. If any password is required, it will be the domain of the site – sn___.it.

2. If you’re taken to FileCrypt – please enter the password, solve the captcha and click on the download DLC button
Use the DLC on JDownloader2 or dcrypt it to get access to the links.

3. Please use the latest version of 7-Zip or WinRAR (Windows), p7zip or unrar (Linux) and Unarchiver or Keka (Mac) to extract the files, depending on the file format.

Extra protection has been added to this release as it may have been taken down recently or there is a risk of it being taken down soon. Thank you for your understanding and we hope you enjoy the content.

4 Responses

  1. That Guy says:

    WOW!
    What an upload.
    Thank you for all your hard work!!!!

  2. Otaku says:

    Thanks for this nice upload Dorukhan, much appreciated!

  3. BotW says:

    Man, this is nuts! Thanks for sharing

  4. dorukhan says:

    DISC INFO: Similar specs in all discs.

    Disc Label: EVANGELION_D1
    Disc Size: 49,832,471,103 bytes
    Protection: AACS
    BDInfo: 0.7.5.6

    PLAYLIST REPORT:

    Name: 00001.MPLS
    Length: 2:20:33.132 (h:m:s.ms)
    Size: 48,320,483,328 bytes
    Total Bitrate: 45.84 Mbps

    VIDEO:

    Codec Bitrate Description
    —– ——- ———–
    MPEG-4 AVC Video 35879 kbps 1080p / 23.976 fps / 16:9 / High Profile 4.1

    AUDIO:

    Codec Language Bitrate Description
    —– ——– ——- ———–
    LPCM Audio Japanese 4608 kbps 5.1 / 48 kHz / 4608 kbps / 16-bit
    LPCM Audio Japanese 1536 kbps 2.0 / 48 kHz / 1536 kbps / 16-bit
    Dolby Digital Audio English 384 kbps 5.1 / 48 kHz / 384 kbps / DN -31dB
    Dolby Digital Audio Spanish 384 kbps 2.0 / 48 kHz / 384 kbps / DN -31dB
    Dolby Digital Audio Spanish 384 kbps 5.1 / 48 kHz / 384 kbps / DN -25dB

    SUBTITLES:

    Codec Language Bitrate Description
    —– ——– ——- ———–
    Presentation Graphics Japanese 108.874 kbps
    Presentation Graphics English 95.546 kbps
    Presentation Graphics Spanish 37.517 kbps

    FILES:

    Name Time In Length Size Total Bitrate
    —- ——- —— —- ————-
    00004.M2TS 0:00:00.000 0:00:20.520 94,402,560 36,803
    00005.M2TS 0:00:20.520 0:23:21.942 8,072,085,504 46,062
    00006.M2TS 0:23:42.462 0:23:21.942 8,034,539,520 45,848
    00007.M2TS 0:47:04.404 0:23:22.400 8,034,275,328 45,832
    00008.M2TS 1:10:26.805 0:23:22.109 8,015,548,416 45,734
    00009.M2TS 1:33:48.914 0:23:22.275 8,027,873,280 45,799
    00010.M2TS 1:57:11.190 0:23:21.942 8,041,758,720 45,889

    Note: This box comes with Spanish (Locomotion and Netflix), English and Japanese dub/sub, muxed by me, I tried to search the best of all. It was hard work for weeks, I could have only uploaded it in Spanish/Japanese as this would have been easier for me, but I wanted to add English for you smile1.gif

    -Disc 1-5: The TV-Series
    -Disc 6: Death and Rebirth (Only sub)
    -Disc 7: The End of Evangelion
    -Disc 8: Revival of Evangelion (Death (True)² + The End of Evangelion)
    -Disc 9 and 10 Extras (Not subbed)

Leave a Reply

Your email address will not be published. Required fields are marked *