Requiem for a Dream 2000 UHD BluRay 2160p TrueHD Atmos 7.1 HEVC REMUX-FraMeSToR

Requiem for a Dream (2000)

Director: Darren Aronofsky
Stars: Ellen Burstyn, Jared Leto, Jennifer Connelly, Marlon Wayans

Runtime: 102 minutes (taken from iMDB)
Genre: Drama

Rating: 8.3* (may differ)
Votes: 674963 (may differ)

Summary: Sara Goldfarb (Ellen Burstyn) is a retired widow, living in a small apartment. She spends most of her time watching TV, especially a particular self-help show. She has delusions of rising above her current dull existence by being a guest on that show. Her son, Harry (Jared Leto) is a junkie but along with his friend Tyrone (Marlon Wayans) has visions of making it big by becoming a drug dealer. Harry’s girlfriend Marion (Jennifer Connelly) could be fashion designer or artist but is swept along in Harry’s drug-centric world. Meanwhile Sara has developed an addiction of her own. She desperately wants to lose weight and so goes on a crash course involving popping pills, pills which turn out to be very addictive and harmful to her mental state.

Links: iMDB

Direct Download Links:


Please Note:

1. If any http://icons.iconarchive.com/icons/sbstnblnd/plateau/64/Apps-password-icon.png is required, it will be the domain of the site – sn___.it.

2. If you’re taken to FileCrypt – please enter the password, solve the captcha and click on the download DLC button
Use the DLC on JDownloader2 or dcrypt it to get access to the links.http://icons.iconarchive.com/icons/artcore-illustrations/artcore-2/48/jdownloader-icon.png

3. Please use the latest version of 7-Zip or http://icons.iconarchive.com/icons/dakirby309/simply-styled/48/WinRAR-icon.png (Windows), p7zip or unrar (Linux) and Unarchiver or Keka (Mac) to extract the files, depending on the file format.

4. If u get error SSL_ERROR_RX_RECORD_TOO_LONG on zippyshare links try with https://cdn2.iconfinder.com/data/icons/security-pro-1/512/Vpn-01-512.png

5. If u want to support me my http://icons.iconarchive.com/icons/cjdowner/cryptocurrency-flat/64/Bitcoin-BTC-icon.pngaddress: 3N4s68NUrrySoHuS2DDPpmEHQVzsL1LDag

Thank you for your understanding and we hope you enjoy the contenthttp://icons.iconarchive.com/icons/oxygen-icons.org/oxygen/48/Emotes-face-smile-icon.png

 

11 Responses

  1. Palapulu says:

    Hi DORUKHAN! Can you upload the DV REMUX of this movie?
    Requiem for a Dream 2000 2160p UHD BluRay REMUX SL DV HEVC TrueHD 7.1 Atmos-FraMeSToR
    I found it on BLU. Here’s the MediaInfo.

    General
    Unique ID : 319313190692774218200272777747371845495 (0xF0397BCA8AE6B693D65C23E23F1AE777)
    Complete name : Requiem.for.a.Dream.2000.UHD.BluRay.2160p.TrueHD.Atmos.7.1.DV.HEVC.REMUX-FraMeSToR.mkv
    Format : Matroska
    Format version : Version 4
    File size : 59.0 GiB
    Duration : 1 h 41 min
    Overall bit rate mode : Variable
    Overall bit rate : 83.2 Mb/s
    Movie name : Requiem for a Dream 4K
    Encoded date : UTC 2020-11-05 21:47:36
    Writing application : mkvmerge v51.0.0 (‘I Wish’) 64-bit
    Writing library : libebml v1.4.0 + libmatroska v1.6.2
    IMDB : tt0180093
    TMDB : movie/641

    Video
    ID : 1
    ID in the original source medium : 4113 (0x1011)
    Format : HEVC
    Format/Info : High Efficiency Video Coding
    Format profile : Main [email protected]@High
    HDR format : Dolby Vision, Version 1.0, dvhe.07.06, BL+EL+RPU, Blu-ray compatible / SMPTE ST 2086, HDR10 compatible
    Codec ID : V_MPEGH/ISO/HEVC
    Duration : 1 h 41 min
    Bit rate : 78.0 Mb/s
    Width : 3 840 pixels
    Height : 2 160 pixels
    Display aspect ratio : 16:9
    Frame rate mode : Constant
    Frame rate : 23.976 (24000/1001) FPS
    Color space : YUV
    Chroma subsampling : 4:2:0 (Type 2)
    Bit depth : 10 bits
    Bits/(Pixel*Frame) : 0.392
    Stream size : 55.3 GiB (94%)
    Default : Yes
    Forced : No
    Color range : Limited
    Color primaries : BT.2020
    Transfer characteristics : PQ
    Matrix coefficients : BT.2020 non-constant
    Mastering display color primaries : Display P3
    Mastering display luminance : min: 0.0010 cd/m2, max: 1000 cd/m2
    Maximum Content Light Level : 1000 cd/m2
    Maximum Frame-Average Light Level : 947 cd/m2
    Original source medium : Blu-ray

    Audio #1
    ID : 2
    Format : MLP FBA 16-ch
    Format/Info : Meridian Lossless Packing FBA with 16-channel presentation
    Commercial name : Dolby TrueHD with Dolby Atmos
    Codec ID : A_TRUEHD
    Duration : 1 h 41 min
    Bit rate mode : Variable
    Bit rate : 3 831 kb/s
    Maximum bit rate : 6 300 kb/s
    Channel(s) : 8 channels
    Channel layout : L R C LFE Ls Rs Lb Rb
    Sampling rate : 48.0 kHz
    Frame rate : 1 200.000 FPS (40 SPF)
    Compression mode : Lossless
    Stream size : 2.72 GiB (5%)
    Title : TrueHD Atmos 7.1
    Language : English
    Default : Yes
    Forced : No
    Number of dynamic objects : 15
    Bed channel count : 1 channel
    Bed channel configuration : LFE

    Audio #2
    ID : 3
    Format : AC-3
    Format/Info : Audio Coding 3
    Commercial name : Dolby Digital
    Codec ID : A_AC3
    Duration : 1 h 41 min
    Bit rate mode : Constant
    Bit rate : 640 kb/s
    Channel(s) : 6 channels
    Channel layout : L R C LFE Ls Rs
    Sampling rate : 48.0 kHz
    Frame rate : 31.250 FPS (1536 SPF)
    Compression mode : Lossy
    Stream size : 465 MiB (1%)
    Title : AC3 5.1-EX
    Language : English
    Service kind : Complete Main
    Default : No
    Forced : No

    Audio #3
    ID : 4
    Format : AC-3
    Format/Info : Audio Coding 3
    Commercial name : Dolby Digital
    Codec ID : A_AC3
    Duration : 1 h 41 min
    Bit rate mode : Constant
    Bit rate : 224 kb/s
    Channel(s) : 2 channels
    Channel layout : L R
    Sampling rate : 48.0 kHz
    Frame rate : 31.250 FPS (1536 SPF)
    Compression mode : Lossy
    Stream size : 163 MiB (0%)
    Title : Commentary by Director Darren Aronofsky
    Language : English
    Service kind : Complete Main
    Default : No
    Forced : No

    Audio #4
    ID : 5
    Format : AC-3
    Format/Info : Audio Coding 3
    Commercial name : Dolby Digital
    Codec ID : A_AC3
    Duration : 1 h 41 min
    Bit rate mode : Constant
    Bit rate : 224 kb/s
    Channel(s) : 2 channels
    Channel layout : L R
    Sampling rate : 48.0 kHz
    Frame rate : 31.250 FPS (1536 SPF)
    Compression mode : Lossy
    Stream size : 163 MiB (0%)
    Title : Commentary by Director of Photography Matthew Libatique
    Language : English
    Service kind : Complete Main
    Default : No
    Forced : No

    Text #1
    ID : 6
    Format : PGS
    Codec ID : S_HDMV/PGS
    Codec ID/Info : Picture based subtitle format used on BDs/HD-DVDs
    Duration : 1 h 36 min
    Bit rate : 30.4 kb/s
    Count of elements : 2286
    Stream size : 21.0 MiB (0%)
    Title : English
    Language : English
    Default : No
    Forced : No

    Text #2
    ID : 7
    Format : PGS
    Codec ID : S_HDMV/PGS
    Codec ID/Info : Picture based subtitle format used on BDs/HD-DVDs
    Duration : 1 h 36 min
    Bit rate : 36.0 kb/s
    Count of elements : 2742
    Stream size : 24.9 MiB (0%)
    Title : English (SDH)
    Language : English
    Default : No
    Forced : No

    Text #3
    ID : 8
    Format : PGS
    Codec ID : S_HDMV/PGS
    Codec ID/Info : Picture based subtitle format used on BDs/HD-DVDs
    Duration : 1 h 36 min
    Bit rate : 37.8 kb/s
    Count of elements : 1566
    Stream size : 26.1 MiB (0%)
    Title : German (SDH)
    Language : German
    Default : No
    Forced : No

    Text #4
    ID : 9
    Format : PGS
    Codec ID : S_HDMV/PGS
    Codec ID/Info : Picture based subtitle format used on BDs/HD-DVDs
    Duration : 1 h 36 min
    Bit rate : 18.7 kb/s
    Count of elements : 1838
    Stream size : 12.9 MiB (0%)
    Title : Korean
    Language : Korean
    Default : No
    Forced : No

    Text #5
    ID : 10
    Format : PGS
    Codec ID : S_HDMV/PGS
    Codec ID/Info : Picture based subtitle format used on BDs/HD-DVDs
    Duration : 1 h 40 min
    Bit rate : 25.9 kb/s
    Count of elements : 2346
    Stream size : 18.6 MiB (0%)
    Title : Spanish (Latin American)
    Language : Spanish
    Default : No
    Forced : No

    Text #6
    ID : 11
    Format : PGS
    Codec ID : S_HDMV/PGS
    Codec ID/Info : Picture based subtitle format used on BDs/HD-DVDs
    Duration : 1 h 38 min
    Bit rate : 36.9 kb/s
    Count of elements : 2262
    Stream size : 26.1 MiB (0%)
    Title : Korean (Commentary #1)
    Language : Korean
    Default : No
    Forced : No

    Menu
    00:00:00.000 : en:Tuning Up
    00:05:30.705 : en:Dreams
    00:09:06.629 : en:The Winner
    00:14:00.882 : en:Juice
    00:19:01.057 : en:Thinking Thin
    00:23:35.039 : en:Dynamite
    00:27:33.318 : en:A Date
    00:29:46.952 : en:$
    00:32:46.965 : en:Sweet Alice
    00:37:16.901 : en:Hope
    00:49:24.211 : en:Hunger Cries
    00:56:24.631 : en:Apart
    01:06:05.420 : en:Fury
    01:13:24.775 : en:A Whack
    01:21:01.231 : en:False Hope
    01:29:17.561 : en:The Requiem

  2. k1n0n3 says:

    waiting for full disc dump of this one for dolby vision

  3. Andrew Tan says:

    Awesome! Thanks a lot for this. 😀

  4. Bobby says:

    Thank you dorukhan!

  5. Tommy Andrew says:

    Wow! Thank you so much! I was about to request this one

  6. Kyle Clark says:

    Hellz yes! Thanks Dorukhan!

  7. dorukhan says:

    GENERAL INFO
    SOURCE : UHD Blu-ray Disc BeyondHD | GER SMAHD | KOR TX | USA ??? (Thanks!)
    FORMAT : MKV (Matroska)
    SIZE : 53.0 GiB
    DURATION : 01:41:31 (h:m:s)
    CHAPTERS : Named
    IMDB : https://www.imdb.com/title/tt0180093/

    VIDEO
    CODEC : HEVC
    TYPE : 2160p
    FRAME RATE : 23.976 fps
    DISPLAY ASPECT RATIO : 16:9
    FORMAT PROFILE LEVEL : Main [email protected]@High
    BITRATE : 69.6 Mbps
    WIDTH x HEIGHT : 3840 x 2160 pixels
    COLOR PRIMARIES : BT.2020

    AUDIO (1)
    CODEC : TrueHD Atmos
    LANGUAGE : English
    CHANNEL(S) : 7.1
    BITRATE : 3831 kbps
    SAMPLING RATE : 48 kHz
    BIT DEPTH : 24 bits

    AUDIO (2)
    CODEC : AC-3
    LANGUAGE : English
    CHANNEL(S) : 5.1-EX
    BITRATE : 640 kbps
    SAMPLING RATE : 48 KHz
    OTHER INFO : AC3 Embedded

    AUDIO (3)
    CODEC : AC-3
    LANGUAGE : English
    CHANNEL(S) : 2.0
    BITRATE : 224 kbps
    SAMPLING RATE : 48 kHz
    OTHER INFO : Commentary by Director Darren Aronofsky

    AUDIO (4)
    CODEC : AC-3
    LANGUAGE : English
    CHANNEL(S) : 2.0
    BITRATE : 224 kbps
    SAMPLING RATE : 48 kHz
    OTHER INFO : Commentary by Director of Photography Matthew Libatique

    SUBTITLES
    English | English (SDH) | German (SDH) | Korean | Spanish (Latin American)

Leave a Reply

Your email address will not be published. Required fields are marked *