Role Models 2008-(Unrated-2in1) 1080p BluRay VC-1 DTS-HD MA 5 1-HDBEE

Role Models (2008)

Director: David Wain
Stars: Seann William Scott, Paul Rudd, Christopher Mintz-Plasse, Bobb’e J. Thompson

Runtime: 99 minutes (taken from iMDB)
Genre: Comedy

Rating: 6.8* (may differ)
Votes: 220562 (may differ)

Release Date: 2008-11-07 (taken from IMDb)
Viewer Rating (TV/MPAA): R (taken from IMDb)

Summary: Danny and Wheeler, well into their 30s, lack something: Danny feels stuck; he’s sour and has driven away his terrific girlfriend. Wheeler chases any skirt he sees for empty sex. When they get in a fight with a tow-truck driver, they choose community service over jail and are assigned to be big brothers – Danny to Augie, a geek who loves to LARP (Live Action Role Play), and Wheeler to Ronnie, a pint-size foul-mouthed kid. After a rocky start, things start to go well until both Danny and Wheeler make big mistakes. Can the two men figure out how to change enough to be role models to the boys?

Links: iMDB

Direct Download Links:


https://img10.lostpic.net/2019/03/03/4381d481f747b8ccb23cca0eeb434c18.png: 3H2SmHvNvctjrt5eaW47yRuuJ5wVywTg7D


1 Response

  1. dorukhan says:

    DISC INFO: Theatrical:
    Disc Title: Role Models
    Disc Label: Role.Models.2008-(Unrated-2in1).1080p.BluRay.VC-1.DTS-HD.MA.5.1-HDBEE
    Disc Size: 42,742,177,761 bytes
    Protection: AACS
    Extras: BD-Java
    BDInfo: 0.7.5.8

    PLAYLIST REPORT:
    Name: 00020.MPLS
    Length: 1:39:01.894 (h:m:s.ms)
    Size: 29,243,584,512 bytes
    Total Bitrate: 39.37 Mbps

    (*) Indicates included stream hidden by this playlist.

    VIDEO:
    Codec Bitrate Description
    —– ——- ———–
    VC-1 Video 30145 kbps 1080p / 23.976 fps / 16:9 / Advanced Profile 3
    * VC-1 Video 1380 kbps 480p / 23.976 fps / 16:9 / Advanced Profile 2

    AUDIO:
    Codec Language Bitrate Description
    —– ——– ——- ———–
    DTS-HD Master Audio English 3618 kbps 5.1 / 48 kHz / 3618 kbps / 24-bit (DTS Core: 5.1 / 48 kHz / 1509 kbps / 24-bit)
    DTS Audio Spanish 768 kbps 5.1 / 48 kHz / 768 kbps / 24-bit
    DTS Audio French 768 kbps 5.1 / 48 kHz / 768 kbps / 24-bit
    Dolby Digital Audio English 192 kbps 2.0 / 48 kHz / 192 kbps / DN -27dB / Dolby Surround
    * DTS Express English 192 kbps 2.0 / 48 kHz / 192 kbps / 24-bit

    SUBTITLES:
    Codec Language Bitrate Description
    —– ——– ——- ———–
    Presentation Graphics English 60.615 kbps
    Presentation Graphics Spanish 49.813 kbps
    Presentation Graphics French 52.928 kbps
    Presentation Graphics Spanish 0.195 kbps
    Presentation Graphics French 0.346 kbps

    FILES:
    Name Time In Length Size Total Bitrate
    —- ——- —— —- ————-
    00351.M2TS 0:00:00.000 0:00:29.779 97,222,656 26,118
    00010.M2TS 0:00:29.779 0:13:05.159 4,002,336,768 40,780
    00352.M2TS 0:13:34.939 0:02:27.772 692,705,280 37,501
    00347.M2TS 0:16:02.711 0:25:54.636 7,785,707,520 40,064
    00348.M2TS 0:41:57.348 0:19:08.021 5,761,468,416 40,149
    00353.M2TS 1:01:05.369 0:00:38.538 185,425,920 38,492
    00349.M2TS 1:01:43.908 0:30:40.505 9,210,556,416 40,035
    00354.M2TS 1:32:24.413 0:00:19.144 94,255,104 39,388
    00350.M2TS 1:32:43.557 0:06:12.038 1,407,043,584 30,256
    00355.M2TS 1:38:55.596 0:00:06.297 6,862,848 8,718

    DISC INFO: Unrated:
    Disc Title: Role Models
    Disc Label: Role.Models.2008-(Unrated-2in1).1080p.BluRay.VC-1.DTS-HD.MA.5.1-HDBEE
    Disc Size: 42,742,177,761 bytes
    Protection: AACS
    Extras: BD-Java
    BDInfo: 0.7.5.8

    PLAYLIST REPORT:
    Name: 00000.MPLS
    Length: 1:41:07.394 (h:m:s.ms)
    Size: 29,912,457,216 bytes
    Total Bitrate: 39.44 Mbps

    (*) Indicates included stream hidden by this playlist.

    VIDEO:
    Codec Bitrate Description
    —– ——- ———–
    VC-1 Video 30188 kbps 1080p / 23.976 fps / 16:9 / Advanced Profile 3
    * VC-1 Video 1404 kbps 480p / 23.976 fps / 16:9 / Advanced Profile 2

    AUDIO:
    Codec Language Bitrate Description
    —– ——– ——- ———–
    DTS-HD Master Audio English 3616 kbps 5.1 / 48 kHz / 3616 kbps / 24-bit (DTS Core: 5.1 / 48 kHz / 1509 kbps / 24-bit)
    DTS Audio Spanish 768 kbps 5.1 / 48 kHz / 768 kbps / 24-bit
    DTS Audio French 768 kbps 5.1 / 48 kHz / 768 kbps / 24-bit
    * Dolby Digital Audio English 192 kbps 2.0 / 48 kHz / 192 kbps / DN -27dB / Dolby Surround
    DTS Express English 192 kbps 2.0 / 48 kHz / 192 kbps / 24-bit

    SUBTITLES:
    Codec Language Bitrate Description
    —– ——– ——- ———–
    Presentation Graphics English 61.025 kbps
    Presentation Graphics Spanish 50.202 kbps
    Presentation Graphics French 53.241 kbps
    Presentation Graphics Spanish 0.191 kbps
    Presentation Graphics French 0.339 kbps

Leave a Reply

Your email address will not be published. Required fields are marked *