Slave Queen of Babylon 1963 German 1080p BluRay x264-WOMBAT

Slave Queen of Babylon (1963)

Director: Primo Zeglio
Stars: Yvonne Furneaux, John Ericson, Renzo Ricci, Gianni Rizzo

Runtime: 101 minutes (taken from iMDB)
Genre: Drama

Rating: 5.1* (may differ)
Votes: 102 (may differ)

Release Date: 1963-03-22 (taken from IMDb)
Viewer Rating (TV/MPAA): (taken from IMDb)

Summary: General Onnos returns from a successful military campaign to the Assyrian capital of Nineveh. He presents King Minurte with a number of newly-captured slaves including Kir, defeated king of the Dardanians. Kir attracts the attention of Semiramis, a beautiful young woman who’s a member of Minurte’s court and who has imperial ambitions. She persuades Minurte to give her a province and then uses slave labor, including Kir, to build herself a city which becomes Babylon. All this time she schemes to overthrow Minurte using shifting alliances with both Kir and General Onnos.

Links: iMDB

Direct Download Links:


https://img10.lostpic.net/2019/03/03/4381d481f747b8ccb23cca0eeb434c18.png: 3H2SmHvNvctjrt5eaW47yRuuJ5wVywTg7D


1 Response

  1. dorukhan says:

    General
    Format : Matroska
    Format version : Version 2
    File size : 5.05 GiB
    Duration : 1 h 35 min
    Overall bit rate : 7 598 kb/s
    Encoded date : UTC 2017-01-17 16:53:41
    Writing application : mkvmerge v3.3.0 (‘Language’) gebaut am Mar 24 2010 14:59:24
    Writing library : libebml v0.8.0 + libmatroska v0.9.0

    Video
    ID : 1
    Format : AVC
    Format/Info : Advanced Video Codec
    Format profile : [email protected]
    Format settings, CABAC : Yes
    Format settings, ReFrames : 5 frames
    Codec ID : V_MPEG4/ISO/AVC
    Duration : 1 h 35 min
    Bit rate : 5 937 kb/s
    Width : 1 920 pixels
    Height : 800 pixels
    Display aspect ratio : 2.40:1
    Frame rate mode : Constant
    Frame rate : 23.976 FPS
    Color space : YUV
    Chroma subsampling : 4:2:0
    Bit depth : 8 bits
    Scan type : Progressive
    Bits/(Pixel*Frame) : 0.161
    Stream size : 3.95 GiB (78%)
    Writing library : x264 core 148 r2744 b97ae06
    Language : German
    Default : No
    Forced : No

    Audio
    ID : 2
    Format : DTS
    Format/Info : Digital Theater Systems
    Mode : 16
    Format settings, Endianness : Big
    Codec ID : A_DTS
    Duration : 1 h 35 min
    Bit rate mode : Constant
    Bit rate : 1 509 kb/s
    Channel(s) : 2 channels
    Channel positions : Front: L R
    Sampling rate : 48.0 kHz
    Frame rate : 93.750 FPS (512 spf)
    Bit depth : 16 bits
    Compression mode : Lossy
    Stream size : 1.00 GiB (20%)
    Title : German
    Language : German
    Default : Yes
    Forced : No

Leave a Reply

Your email address will not be published. Required fields are marked *