Star Wars Episode IX The Rise of Skywalker 2019 2160p HDR/SDR WEB-DL DDP5.1 Atmos HEVC-BLUTONiUM

Star Wars: Episode IX – The Rise of Skywalker (2019)

 

Summary: The surviving members of the resistance face the First Order once again, and the legendary conflict between the Jedi and the Sith reaches its peak bringing the Skywalker saga to its end.

 

Director: J.J. Abrams
Stars: Carrie Fisher, Mark Hamill, Adam Driver, Daisy Ridley
Rating: 6.8/10
Votes: 263,183
Genres: Action, Adventure, Fantasy, Sci-Fi
Runtime: 142 min

 

Links: IMDb

 

 

Direct Download Links:

Star.Wars.Episode.IX.The.Rise.of.Skywalker.2019.2160p.HDR.WEB-DL.DDP5.1.Atmos.HEVC-BLUTONiUM [24.81 GB]
Download from Zippyshare (Splits) – No Limits
Download from Google Drive (SINGLE Link) – No Limits
Download from Google Drive (10 GB Splits) – No Limits
Download from 1fichier (SINGLE Link)
Download from MEGA.nz (SINGLE Link)

 

Direct Download Links:

Star.Wars.Episode.IX.The.Rise.of.Skywalker.2019.2160p.WEB-DL.DDP5.1.Atmos.HEVC-BLUTONiUM [22.06 GB]
Download from Zippyshare (Splits) – No Limits
Download from Google Drive (SINGLE Link) – No Limits
Download from Google Drive (10 GB Splits) – No Limits
Download from 1fichier (SINGLE Link)


How to bypass fc.lc links? Click here for video tutorial
How to download from Klop.me? Click here for video tutorial
How to download all zippyshare parts at once? Click here for video tutorial

Why am I using Klop for Google Drive links? sharing copyrighted files from Google Drive will cause account suspension and Google will delete all my files so I can’t share direct links from GD. Klop will copy the file from my GD account to yours but first you need to login and give access permission to it. If you’re not ok with it please use other links provided.

 

Do you like my uploads? Donate me so I can keep uploading…

Bitcoin address:
32A5SgYFbASZc6js5wSgabysGoKGEMYYHV

Dash address:
Xi8JB2UVt64wkaWWsdJX9ZDFSxWFq3hTLn

13 Responses

  1. Michael87 says:

    Oh I almost forgot one more thing if someone is able to upload the SDR version can you please make it available using Google drive, mega, or 1fichier… Thank you in advance.

  2. Michael87 says:

    Can someone please upload this file in SDR so far everywhere I have checked only the HDR file is available but I know that there is an SDR version I just can’t find it. My tablet can play 2160p files without issue but only if it’s in SDR so if anyone can help I’d be very grateful.

      • Michael87 says:

        Thank you so much for uploading the file I really appreciate it and you did it so quickly I must say I’m very impressed. Like I said I’m new here but this is quickly becoming one of my favorites the ease of use of the site, the variety of hosts, and even very large files have a single link option. Kudos to you and any other admins and again thank you for the file.

  3. anon89 says:

    Thank you DAHAKA ツ
    Watched the 1080 yesterday and going to rewatch today but since you posted this release I just grabbed to view this one instead, usually only grab the disc releases of 4k never web but will do on this occasion, thanks again for all your contributions.

  4. yasar says:

    can we have this in 1080p remux or full bd please?

  5. That guy says:

    General
    Unique ID : 243655385880928157299883567628715823857 (0xB74E520449BE7BDAC6216D171E9012F1)
    Complete name : Star.Wars.Episode.IX.The.Rise.of.Skywalker.2019.2160p.HDR.WEB-DL.DDP5.1.Atmos.HEVC-BLUTONiUM.mkv
    Format : Matroska
    Format version : Version 4 / Version 2
    File size : 24.8 GiB
    Duration : 2 h 21 min
    Overall bit rate : 25.0 Mb/s
    Encoded date : UTC 2020-03-14 14:22:07
    Writing application : mkvmerge v42.0.0 (‘Overtime’) 64-bit
    Writing library : libebml v1.3.10 + libmatroska v1.5.2

    Video
    ID : 1
    Format : HEVC
    Format/Info : High Efficiency Video Coding
    Format profile : Main [email protected]@Main
    Codec ID : V_MPEGH/ISO/HEVC
    Duration : 2 h 21 min
    Bit rate : 24.5 Mb/s
    Width : 3 840 pixels
    Height : 1 600 pixels
    Display aspect ratio : 2.40:1
    Frame rate mode : Constant
    Frame rate : 23.976 (24000/1001) FPS
    Standard : NTSC
    Color space : YUV
    Chroma subsampling : 4:2:0 (Type 2)
    Bit depth : 10 bits
    Bits/(Pixel*Frame) : 0.166
    Stream size : 24.2 GiB (98%)
    Default : Yes
    Forced : No
    Color range : Limited
    Color primaries : BT.2020
    Transfer characteristics : SMPTE ST 2084
    Matrix coefficients : BT.2020 non-constant
    Mastering display color primar : R: x=0.680000 y=0.320000, G: x=0.265000 y=0.690000, B: x=0.150000 y=0.060000, White point: x=0.312700 y=0.329000
    Mastering display luminance : min: 0.0001 cd/m2, max: 1000.0000 cd/m2
    Maximum Content Light Level : 717 cd/m2
    Maximum Frame-Average Light Le : 642 cd/m2

    Audio
    ID : 2
    Format : E-AC-3
    Format/Info : Enhanced Audio Coding 3
    Format profile : E-AC-3+Atmos / E-AC-3
    Format settings, Endianness : Big
    Codec ID : A_EAC3
    Duration : 2 h 21 min
    Bit rate mode : Constant
    Bit rate : 576 kb/s
    Channel(s) : 15 objects / 6 channels
    Channel positions : 15 objects / Front: L C R, Side: L R, LFE
    Sampling rate : 48.0 kHz
    Frame rate : 187.500 FPS (256 SPF)
    Compression mode : Lossy
    Stream size : 584 MiB (2%)
    Language : English
    Service kind : Complete Main
    Default : No
    Forced : No

    Text #1
    ID : 3
    Format : UTF-8
    Codec ID : S_TEXT/UTF8
    Codec ID/Info : UTF-8 Plain Text
    Duration : 2 h 8 min
    Bit rate : 51 b/s
    Count of elements : 1530
    Stream size : 47.9 KiB (0%)
    Language : English
    Default : No
    Forced : No

    Text #2
    ID : 4
    Format : UTF-8
    Codec ID : S_TEXT/UTF8
    Codec ID/Info : UTF-8 Plain Text
    Duration : 2 h 11 min
    Bit rate : 59 b/s
    Count of elements : 1895
    Stream size : 57.4 KiB (0%)
    Title : SDH
    Language : English
    Default : No
    Forced : No

  6. That guy says:

    Thanks for the upload!
    Just finished watching this and oh man what a pile of garbage.
    I think I hemorrhaged IQ points.
    Disney really messed up Star Wars big time.

  7. asss says:

    Can cut one day at a time s01 s02 s03 ? For google drive

  8. JohnDoe says:

    Is EVO BLUTONIUM?

Leave a Reply

Your email address will not be published. Required fields are marked *