The Fifth Element 1997 35mm 1080p Dolby Surround v1 0

The Fifth Element (1997)

Director: Luc Besson
Stars: Bruce Willis, Gary Oldman, Ian Holm, Milla Jovovich

Runtime: 126 minutes (taken from iMDB)
Genre: Action, Adventure, Sci-Fi

Rating: 7.7* (may differ)
Votes: 433370 (may differ)

Release Date: 1997-05-09 (taken from IMDb)
Viewer Rating (TV/MPAA): PG-13 (taken from IMDb)

Summary: In the twenty-third century, the universe is threatened by evil. The only hope for mankind is the Fifth Element, who comes to Earth every five thousand years to protect the humans with four stones of the four elements: fire, water, Earth and air. A Mondoshawan spacecraft is bringing The Fifth Element back to Earth but it is destroyed by the evil Mangalores. However, a team of scientists use the DNA of the remains of the Fifth Element to rebuild the perfect being called Leeloo. She escapes from the laboratory and stumbles upon the taxi driver and former elite commando Major Korben Dallas that helps her to escape from the police. Leeloo tells him that she must meet Father Vito Cornelius to accomplish her mission. Meanwhile, the Evil uses the greedy and cruel Jean-Baptiste Emanuel Zorg and a team of mercenary Mangalores to retrieve the stones and avoid the protection of Leeloo. But the skilled Korben Dallas has fallen in love with Leeloo and decides to help her to retrieve the stones.

Links: iMDB

Direct Download Links:

4 Responses

  1. Sandip says:

    Thanks for 35mm version.

  2. dorukhan says:

    One of the most fun science fiction movies arrives in full 35mm glory:

    – Only some mild cleanup was applied
    – The print is LPP, so no color fading here
    – The encode is blu-ray compliant
    – The release is NOT synchronized to official BD

    Audio track #1 (default) is a digital Dolby Surround track captured from Laserdisc (recommended)
    Audio track #2 is a capture of AC-3 5.1 Laserdisc track
    Audio track #3 is a capture of the optical audio from the print itself

    Format : Matroska
    Format version : Version 4
    File size : 33.5 GiB
    Duration : 2 h 5 min
    Overall bit rate mode : Variable
    Overall bit rate : 38.1 Mb/s
    Writing application : mkvmerge v9.4.0 (‘Knurl’) 64bit
    Writing library : libebml v1.3.4 + libmatroska v1.4.5

    Video
    ID : 1
    Format : AVC
    Format/Info : Advanced Video Codec
    Format profile : [email protected]
    Format settings : CABAC / 4 Ref Frames
    Format settings, CABAC : Yes
    Format settings, Reference : 4 frames
    Codec ID : V_MPEG4/ISO/AVC
    Duration : 2 h 5 min
    Bit rate mode : Variable
    Bit rate : 34.0 Mb/s
    Maximum bit rate : 40.0 Mb/s
    Width : 1 920 pixels
    Height : 1 080 pixels
    Display aspect ratio : 16:9
    Frame rate mode : Constant
    Frame rate : 23.976 (24000/1001) FPS
    Color space : YUV
    Chroma subsampling : 4:2:0
    Bit depth : 8 bits
    Scan type : Progressive
    Bits/(Pixel*Frame) : 0.684
    Stream size : 29.9 GiB (89%)
    Writing library : x264 core 146 r2538 121396c
    Encoding settings : cabac=1 / ref=4 / deblock=1:-1:-1 / analyse=0x3:0x113 / me=umh / subme=8 / psy=1 / psy_rd=1.00:0.15 / mixed_ref=1 / me_range=24 / chroma_me=1 / trellis=1 / 8x8dct=1 / cqm=0 / deadzone=21,11 / fast_pskip=1 / chroma_qp_offset=-3 / threads=12 / lookahead_threads=2 / sliced_threads=0 / slices=4 / nr=0 / decimate=1 / interlaced=0 / bluray_compat=1 / constrained_intra=0 / bframes=3 / b_pyramid=0 / b_adapt=2 / b_bias=0 / direct=3 / weightb=1 / open_gop=0 / weightp=0 / keyint=24 / keyint_min=1 / scenecut=40 / intra_refresh=0 / rc_lookahead=24 / rc=2pass / mbtree=1 / bitrate=34000 / ratetol=1.0 / qcomp=0.60 / qpmin=0 / qpmax=69 / qpstep=4 / cplxblur=20.0 / qblur=0.5 / vbv_maxrate=40000 / vbv_bufsize=30000 / nal_hrd=vbr / filler=0 / ip_ratio=1.40 / aq=1:1.00
    Default : Yes
    Forced : No
    Color range : Limited
    Color primaries : BT.709
    Transfer characteristics : BT.709
    Matrix coefficients : BT.709

    Audio #1
    ID : 2
    Format : PCM
    Format settings : Little / Signed
    Codec ID : A_PCM/INT/LIT
    Duration : 2 h 5 min
    Bit rate mode : Constant
    Bit rate : 1 411.2 kb/s
    Channel(s) : 2 channels
    Sampling rate : 44.1 kHz
    Frame rate : 5.000 FPS (8820 SPF)
    Bit depth : 16 bits
    Stream size : 1.24 GiB (4%)
    Title : PCM LD
    Default : Yes
    Forced : No

    Audio #2
    ID : 3
    Format : AC-3
    Format/Info : Audio Coding 3
    Commercial name : Dolby Digital
    Codec ID : A_AC3
    Duration : 2 h 5 min
    Bit rate mode : Constant
    Bit rate : 384 kb/s
    Channel(s) : 6 channels
    Channel layout : L R C LFE Ls Rs
    Sampling rate : 48.0 kHz
    Frame rate : 31.250 FPS (1536 SPF)
    Compression mode : Lossy
    Stream size : 346 MiB (1%)
    Title : AC-3 LD 5.1
    Service kind : Complete Main
    Default : No
    Forced : No

    Audio #3
    ID : 4
    Format : PCM
    Format settings : Little / Signed
    Codec ID : A_PCM/INT/LIT
    Duration : 2 h 5 min
    Bit rate mode : Constant
    Bit rate : 2 304 kb/s
    Channel(s) : 2 channels
    Sampling rate : 48.0 kHz
    Frame rate : 32.000 FPS (1500 SPF)
    Bit depth : 24 bits
    Stream size : 2.03 GiB (6%)
    Title : 2.0 Optical
    Default : No
    Forced : No

    • teof says:

      What’s the source for this release? Is it better than bluray remux?

      • Datahoarder says:

        The source is an analog 35mm theatrical film print. So you see scratches and other fragments of the physical film strip that ran through a projector, therefore you get an experience close to seeing the film in theaters, with all the ups and downs. You can’t really compare it to a cleaned up digital Bluray version, it’s your preference. Bluray remux is cleaner and most would prefer it, but a 35mm release is rare and something awesome for film enthusiasts.

Leave a Reply

Your email address will not be published. Required fields are marked *