The Killers 1946 1080p BluRay REMUX AVC FLAC 1 0-EPSiLON

The Killers (1946)

Director: Robert Siodmak
Stars: Burt Lancaster, Ava Gardner, Edmond O’Brien, Albert Dekker

Runtime: 103 minutes (taken from iMDB)
Genre: Crime, Drama, Film-Noir, Mystery

Rating: 7.8* (may differ)
Votes: 16828 (may differ)

Release Date: 1946-08-30 (taken from IMDb)
Viewer Rating (TV/MPAA): Passed (taken from IMDb)

Summary: Two professional killers invade a small town and kill a gas station attendant, “the Swede,” who’s expecting them. Insurance investigator Reardon pursues the case against the orders of his boss, who considers it trivial. Weaving together threads of the Swede’s life, Reardon uncovers a complex tale of treachery and crime, all linked with gorgeous, mysterious Kitty Collins.

Links: iMDB

Direct Download Links:

2 Responses

  1. Petrus says:

    great classic, many thanks!

  2. That guy says:

    This is from the Criterion Collection for those who may be wondering.

    MediaInfo:

    General
    Unique ID : 235565234339137700730308695556488712390 (0xB13836BFFD6D6EC36D58BF040DE850C6)
    Complete name : The.Killers.1946.1080p.BluRay.REMUX.AVC.FLAC.1.0-EPSiLON.mkv
    Format : Matroska
    Format version : Version 4 / Version 2
    File size : 15.9 GiB
    Duration : 1 h 42 min
    Overall bit rate mode : Variable
    Overall bit rate : 22.1 Mb/s
    Movie name : The Killers (1946)
    Encoded date : UTC 2019-04-23 04:37:38
    Writing application : mkvmerge v33.1.0 (‘Primrose’) 64-bit
    Writing library : libebml v1.3.7 + libmatroska v1.5.0
    IMDB : tt0038669
    TMDB : movie/14638

    Video
    ID : 1
    Format : AVC
    Format/Info : Advanced Video Codec
    Format profile : [email protected]
    Format settings, CABAC : Yes
    Format settings, RefFrames : 4 frames
    Codec ID : V_MPEG4/ISO/AVC
    Duration : 1 h 42 min
    Bit rate mode : Variable
    Bit rate : 21.5 Mb/s
    Maximum bit rate : 37.0 Mb/s
    Width : 1 920 pixels
    Height : 1 080 pixels
    Display aspect ratio : 16:9
    Frame rate mode : Constant
    Frame rate : 23.976 (24000/1001) FPS
    Color space : YUV
    Chroma subsampling : 4:2:0
    Bit depth : 8 bits
    Scan type : Progressive
    Bits/(Pixel*Frame) : 0.432
    Stream size : 15.4 GiB (97%)
    Title : MPEG-4 AVC Video / 21506 kbps / 1080p / 23.976 fps / 16:9 / High Profile 4.1
    Language : English
    Default : Yes
    Forced : No

    Audio
    ID : 2
    Format : FLAC
    Format/Info : Free Lossless Audio Codec
    Codec ID : A_FLAC
    Duration : 1 h 42 min
    Bit rate mode : Variable
    Bit rate : 578 kb/s
    Channel(s) : 1 channel
    Channel positions : Front: C
    Sampling rate : 48.0 kHz
    Frame rate : 11.719 FPS (4096 SPF)
    Bit depth : 24 bits
    Stream size : 425 MiB (3%)
    Title : FLAC Audio / 1.0 / 48 kHz / 578 kbps / 24-bit
    Writing library : libFLAC 1.2.1 (UTC 2007-09-17)
    Language : English
    Default : Yes
    Forced : No

    Text
    ID : 3
    Format : PGS
    Codec ID : S_HDMV/PGS
    Codec ID/Info : Picture based subtitle format used on BDs/HD-DVDs
    Duration : 1 h 39 min
    Bit rate : 70.8 kb/s
    Count of elements : 3040
    Stream size : 50.5 MiB (0%)
    Language : English
    Default : No
    Forced : No

    Menu
    00:00:00.000 : en:Brentwood, USA
    00:08:43.857 : en:Why would anyone want to kill the Swede?
    00:12:54.482 : en:What do you know about Lunn?
    00:15:04.654 : en:Nick Adams’s story
    00:19:06.145 : en:Queenie’s story
    00:23:47.843 : en:Dead man’s handkerchief
    00:26:49.942 : en:Lieutenant Lubinsky’s story
    00:35:54.986 : en:Lilly’s story
    00:41:20.770 : en:Tip on some hot jewelry
    00:46:55.730 : en:Charleston’s story
    00:52:08.542 : en:Tell us about a caper
    00:57:25.942 : en:Holdup in Hackensack
    01:02:51.851 : en:Blinky’s story
    01:07:41.266 : en:There goes a quarter of a million
    01:11:40.421 : en:Dum-Dum’s story
    01:18:54.271 : en:Big Jim Colfax’s story
    01:24:09.419 : en:Blue suit, bow tie
    01:27:23.864 : en:Kitty’s story
    01:34:13.231 : en:Let’s get out of here
    01:36:42.964 : en:Our luck’s run out, Kitty
    01:41:33.004 : en:Double cross to end all double crosses

Leave a Reply

Your email address will not be published. Required fields are marked *