Thomas and the Magic Railroad 2000 1080p Bluray ReMuX AVC DTS HD MA 5 1-BOMBACI MULAYIM

Thomas and the Magic Railroad (2000)

Director: Britt Allcroft
Stars: Alec Baldwin, Cody McMains, Russell Means, Peter Fonda

Runtime: 85 minutes (taken from iMDB)
Genre: Adventure, Comedy, Drama, Family, Fantasy

Rating: 3.8* (may differ)
Votes: 3397 (may differ)

Release Date: 2000-07-26 (taken from IMDb)
Viewer Rating (TV/MPAA): G (taken from IMDb)

Summary: Mr. Conductor’s supply of magic gold dust, which allows him to travel between Shining Time and Thomas’s island, is critically low. Unfortunately, he doesn’t know how to get more. Meanwhile, Thomas is fending off attacks by the nasty diesel engines. Getting more gold dust will require help from Mr. C’s slacker cousin, his new friend Lilly, and her morose grandfather, plus the secret engine he’s hidden all these years and couldn’t get running.

Links: iMDB

Direct Download Links:

2 Responses

  1. Liam says:

    what about the extras like the deleted storyline?

  2. dorukhan says:

    File size : 18.1 GiB
    Duration : 1 h 25 min
    Overall bit rate mode : Variable
    Overall bit rate : 30.2 Mb/s
    Encoded date : UTC 2021-01-31 16:49:30
    Writing application : mkvmerge v53.0.0 (‘Fool’s Gold’) 64-bit
    Writing library : libebml v1.4.1 + libmatroska v1.6.2

    Video
    ID : 2
    Format : AVC
    Format/Info : Advanced Video Codec
    Format profile : [email protected]
    Format settings : CABAC / 4 Ref Frames
    Format settings, CABAC : Yes
    Format settings, Reference frames : 4 frames
    Codec ID : V_MPEG4/ISO/AVC
    Duration : 1 h 25 min
    Bit rate mode : Variable
    Bit rate : 27.9 Mb/s
    Maximum bit rate : 36.0 Mb/s
    Width : 1 920 pixels
    Height : 1 080 pixels
    Display aspect ratio : 16:9
    Frame rate mode : Constant
    Frame rate : 23.976 (24000/1001) FPS
    Color space : YUV
    Chroma subsampling : 4:2:0
    Bit depth : 8 bits
    Scan type : Progressive
    Bits/(Pixel*Frame) : 0.561
    Stream size : 16.7 GiB (92%)
    Default : Yes
    Forced : No

    Audio
    ID : 3
    Format : DTS XLL
    Format/Info : Digital Theater Systems
    Commercial name : DTS-HD Master Audio
    Codec ID : A_DTS
    Duration : 1 h 25 min
    Bit rate mode : Variable
    Bit rate : 2 303 kb/s
    Channel(s) : 6 channels
    Channel layout : C L R Ls Rs LFE
    Sampling rate : 48.0 kHz
    Frame rate : 93.750 FPS (512 SPF)
    Bit depth : 24 bits
    Compression mode : Lossless
    Stream size : 1.38 GiB (8%)
    Language : English
    Default : Yes
    Forced : No

    Text
    ID : 1
    Format : PGS
    Muxing mode : zlib
    Codec ID : S_HDMV/PGS
    Codec ID/Info : Picture based subtitle format used on BDs/HD-DVDs
    Duration : 1 h 25 min
    Bit rate : 38.5 kb/s
    Count of elements : 1910
    Stream size : 23.6 MiB (0%)
    Language : English
    Default : Yes
    Forced : No

Leave a Reply

Your email address will not be published. Required fields are marked *