Training Day 2001 Bluray Hybrid 1080p VC1 FLAC 5 1 REMUX-Machine

Training Day (2001)

Director: Antoine Fuqua
Stars: Denzel Washington, Ethan Hawke, Scott Glenn, Tom Berenger

Runtime: 122 minutes (taken from iMDB)
Genre: Crime, Drama, Thriller

Rating: 7.7* (may differ)
Votes: 359106 (may differ)

Release Date: 2001-10-05 (taken from IMDb)
Viewer Rating (TV/MPAA): R (taken from IMDb)

Summary: In Los Angeles, a city where streets are overrun by drug dealers, those who have sworn to uphold the law are breaking them to clean up the streets. Denzel Washington plays L.A.P.D. detective Alonzo Harris, a veteran narcotics officer whose methods of enforcing the law are questionable, if not corrupt. ‘Training Day’ follows Harris as he trains rookie Jake Hoyt over a 24-hour period. Ethical dilemmas arise for Hoyt as well as the audience as questions present themselves as to whether or not Harris’ methodology for ridding the streets of South Central Los Angeles of drugs is right or wrong.

Links: iMDB

Direct Download Links:

Password: snahp

6 Responses

  1. ha=m33 says:

    any info about source? They usually put it when doing hybrid remux

    • Nick says:

      For some reason most (if not all) of the BluRay releases have lossy Dolby Digital audio.

      The old HD-DVD had lossless TrueHD audio, so this is probably a combination of that audio plus VC-1 BluRay video.

      • That guy says:

        The HD-DVD had TrueHD and DD+ while the Bluray only had regular DD.
        Why they converted the TrueHD to FLAC is beyond me though.
        The original Blurays were MPEG-2 ad well while the HD-DVDs were VC-1.
        Later releases of the Bluray in Europe brought over the VC-1 but stuck with DD audio.
        Might as well just do a HD-DVD Remux.
        Either way VC-1 with TrueHD (or FLAC in this case) is the best possible version.

      • That guy says:

        There’s a remux floating around with DTS-HD MA 5.1 too.

        Training Day 2001 MULTI 1080p BluRay REMUX VC-1-HDILLUZION.mkv
        Format : Matroska
        Format version : Version 4 / Version 2
        File size : 16.9 GiB
        Duration : 2h 2mn
        Overall bit rate mode : Variable
        Overall bit rate : 19.9 Mbps
        Encoded date : UTC 2014-06-28 19:58:53
        Writing application : mkvmerge v7.0.0 (‘Where We Going’) 64bit built on Jun 9 2014 15:16:27
        Writing library : libebml v1.3.0 + libmatroska v1.4.1

        Video
        ID : 1
        Format : VC-1
        Format profile : [email protected]
        Codec ID : V_MS/VFW/FOURCC / WVC1
        Codec ID/Hint : Microsoft
        Duration : 2h 2mn
        Bit rate : 16.6 Mbps
        Width : 1 920 pixels
        Height : 1 080 pixels
        Display aspect ratio : 16:9
        Frame rate mode : Constant
        Frame rate : 23.976 fps
        Chroma subsampling : 4:2:0
        Bit depth : 8 bits
        Scan type : Progressive
        Compression mode : Lossy
        Bits/(Pixel*Frame) : 0.335
        Stream size : 14.2 GiB (84%)
        Title : Training Day
        Default : Yes
        Forced : No

        Audio #1
        ID : 2
        Format : AC-3
        Format/Info : Audio Coding 3
        Mode extension : CM (complete main)
        Format settings, Endianness : Big
        Codec ID : A_AC3
        Duration : 2h 2mn
        Bit rate mode : Constant
        Bit rate : 640 Kbps
        Channel(s) : 6 channels
        Channel positions : Front: L C R, Side: L R, LFE
        Sampling rate : 48.0 KHz
        Bit depth : 16 bits
        Compression mode : Lossy
        Delay relative to video : 24ms
        Stream size : 559 MiB (3%)
        Title : French : Dolby Digital 5.1
        Default : Yes
        Forced : No

        Audio #2
        ID : 3
        Format : AC-3
        Format/Info : Audio Coding 3
        Mode extension : CM (complete main)
        Format settings, Endianness : Big
        Codec ID : A_AC3
        Duration : 2h 2mn
        Bit rate mode : Constant
        Bit rate : 640 Kbps
        Channel(s) : 6 channels
        Channel positions : Front: L C R, Side: L R, LFE
        Sampling rate : 48.0 KHz
        Bit depth : 16 bits
        Compression mode : Lossy
        Stream size : 559 MiB (3%)
        Title : TrueFrench : Dolby Digital 5.1
        Default : No
        Forced : No

        Audio #3
        ID : 4
        Format : DTS
        Format/Info : Digital Theater Systems
        Format profile : MA / Core
        Codec ID : A_DTS
        Duration : 2h 2mn
        Bit rate mode : Variable
        Bit rate : 1 561 Kbps / 1 510 Kbps
        Channel(s) : 6 channels
        Channel positions : Front: L C R, Side: L R, LFE
        Sampling rate : 48.0 KHz
        Bit depth : 16 bits
        Compression mode : Lossless / Lossy
        Title : English : DTS-HD Master Audio 5.1
        Default : No
        Forced : No

        Text #1
        ID : 5
        Format : PGS
        Muxing mode : zlib
        Codec ID : S_HDMV/PGS
        Codec ID/Info : The same subtitle format used on BDs/HD-DVDs
        Title : French : Subtitles
        Default : No
        Forced : No

        Text #2
        ID : 6
        Format : PGS
        Muxing mode : zlib
        Codec ID : S_HDMV/PGS
        Codec ID/Info : The same subtitle format used on BDs/HD-DVDs
        Title : English : Subtitles
        Default : No
        Forced : No

        Menu
        00:00:00.000 : en:It’s Today
        00:03:53.524 : en:Tell Me A Story
        00:08:02.356 : en:Leave Family Out
        00:12:20.072 : en:Drug Roust
        00:15:37.394 : en:Narcotics In His Blood
        00:20:35.943 : en:Joking With Roger
        00:25:42.290 : en:Alley Incident
        00:32:13.932 : en:It Takes A Wolf
        00:36:12.670 : en:Collaring Sammy
        00:40:41.063 : en:Sandman’s Wife
        00:45:20.467 : en:Firing Line
        00:47:15.207 : en:Wolf Or Sheep?
        00:49:24.002 : en:Mother And Son
        00:55:04.259 : en:LAPD’s Finest
        00:59:59.762 : en:The Unit Punches In
        01:02:56.272 : en:Roger Out Of His Misery
        01:09:56.859 : en:The Scenario
        01:15:08.253 : en:This Is The Game
        01:20:29.699 : en:Five-Card Draw
        01:24:17.385 : en:The Drop On The Cop
        01:29:26.277 : en:Smiley’s Cousin
        01:33:27.601 : en:”I’m Here For Alonzo”
        01:37:21.335 : en:Preserving Life
        01:41:25.579 : en:Rooftop Battle
        01:45:00.210 : en:What Jake Learned Today
        01:48:44.184 : en:”You Can’t Kill Me”
        01:52:39.961 : en:Going Home
        01:55:43.144 : en:End Credits

  2. AK says:

    The Password is wrong.

Leave a Reply

Your email address will not be published. Required fields are marked *