You Were Never Really Here 2017 1080p Hybrid Remux AVC DTS-HD MA 5 1-BiZKiT

You Were Never Really Here (2017)

Director: Lynne Ramsay
Stars: Joaquin Phoenix, Dante Pereira-Olson, Larry Canady, Vinicius Damasceno

Runtime: 89 minutes (taken from iMDB)
Genre: Crime, Drama, Mystery, Thriller

Rating: 6.9* (may differ)
Votes: 50553 (may differ)

Summary: A traumatized veteran, unafraid of violence, tracks down missing girls for a living. When a job spins out of control, Joe’s nightmares overtake him as a conspiracy is uncovered leading to what may be his death trip or his awakening.

Links: iMDB

Direct Download Links:

 

2 Responses

  1. That Guy says:

    NOTE: Subtitles are lossy (SRT not PGS)

    General
    Unique ID : 208085385597903754772966874486189831084 (0x9C8BC99A561EFDA29641FA9F9F8BB3AC)
    Complete name : You.Were.Never.Really.Here.2017.1080p.Hybrid.ReMuX.AVC.DTS-HD.MA.5.1-BiZKiT.mkv
    Format : Matroska
    Format version : Version 4
    File size : 23.2 GiB
    Duration : 1 h 29 min
    Overall bit rate mode : Variable
    Overall bit rate : 37.0 Mb/s
    Encoded date : UTC 2019-12-29 11:49:57
    Writing application : mkvmerge v41.0.0 (‘Smarra’) 64-bit
    Writing library : libebml v1.3.9 + libmatroska v1.5.2

    Video
    ID : 1
    Format : AVC
    Format/Info : Advanced Video Codec
    Format profile : [email protected]
    Format settings : CABAC / 2 Ref Frames
    Format settings, CABAC : Yes
    Format settings, Reference frames : 2 frames
    Format settings, GOP : M=1, N=10
    Codec ID : V_MPEG4/ISO/AVC
    Duration : 1 h 29 min
    Bit rate mode : Variable
    Bit rate : 33.8 Mb/s
    Width : 1 920 pixels
    Height : 1 080 pixels
    Display aspect ratio : 16:9
    Frame rate mode : Constant
    Frame rate : 23.976 (24000/1001) FPS
    Color space : YUV
    Chroma subsampling : 4:2:0
    Bit depth : 8 bits
    Scan type : Progressive
    Bits/(Pixel*Frame) : 0.680
    Stream size : 21.2 GiB (91%)
    Title : MPEG-4 AVC @ 33808 kbps
    Default : Yes
    Forced : No

    Audio
    ID : 2
    Format : DTS XLL
    Format/Info : Digital Theater Systems
    Commercial name : DTS-HD Master Audio
    Codec ID : A_DTS
    Duration : 1 h 29 min
    Bit rate mode : Variable
    Bit rate : 3 234 kb/s
    Channel(s) : 6 channels
    Channel layout : C L R Ls Rs LFE
    Sampling rate : 48.0 kHz
    Frame rate : 93.750 FPS (512 SPF)
    Bit depth : 24 bits
    Compression mode : Lossless
    Stream size : 2.03 GiB (9%)
    Title : DTS-HD MA 5.1 @ 3235 kbps / 24-bit
    Language : English
    Default : Yes
    Forced : No

    Text
    ID : 3
    Format : UTF-8
    Codec ID : S_TEXT/UTF8
    Codec ID/Info : UTF-8 Plain Text
    Duration : 1 h 20 min
    Bit rate : 19 b/s
    Count of elements : 426
    Stream size : 11.4 KiB (0%)
    Language : English
    Default : No
    Forced : No

    Menu
    00:00:00.000 : :Chapter 01
    00:07:13.433 : :Chapter 02
    00:14:39.879 : :Chapter 03
    00:20:04.203 : :Chapter 04
    00:23:19.565 : :Chapter 05
    00:27:08.627 : :Chapter 06
    00:34:55.093 : :Chapter 07
    00:38:15.293 : :Chapter 08
    00:42:51.569 : :Chapter 09
    00:49:07.945 : :Chapter 10
    00:53:46.223 : :Chapter 11
    01:01:37.694 : :Chapter 12
    01:08:45.121 : :Chapter 13
    01:14:31.467 : :Chapter 14
    01:18:53.729 : :Chapter 15
    01:22:21.103 : :Chapter 16

  2. mentality says:

    Looking forward to this. Sounds and looks good. Thanks again.

Leave a Reply

Your email address will not be published. Required fields are marked *